เวปสำหรับGamerเเละเพื่อนๆ
 
บ้านCalendarช่วยเหลือค้นหารายชื่อสมาชิกกลุ่มผู้ใช้สมัครสมาชิก(Register)เข้าสู่ระบบ(Log in)

Share | 
 

 [Mini-HD] เดี่ยวไมโครโฟน 9 ~ Thai Stand Up Comedy 9 (รำลึก 16 ปี แห่งความหลัง เดี่ยวไมโครโฟน) [720p][PL/SS/3.90 GB]

อ่านหัวข้อก่อนหน้า อ่านหัวข้อถัดไป Go down 
ผู้ตั้งข้อความ
Admin
Gamerระดับ5
Gamerระดับ5
avatar

จำนวนข้อความ : 61
Points : 177
Reputation : 0
Join date : 18/11/2011
Age : 20

ตั้งหัวข้อเรื่อง: [Mini-HD] เดี่ยวไมโครโฟน 9 ~ Thai Stand Up Comedy 9 (รำลึก 16 ปี แห่งความหลัง เดี่ยวไมโครโฟน) [720p][PL/SS/3.90 GB]   Sun Dec 25, 2011 6:49 pm



เดี่ยวไมโครโฟน 9 ~ Thai Stand Up Comedy 9 (รำลึก 16 ปี แห่งความหลัง เดี่ยวไมโครโฟน) | 3.90GB

เรื่องย่อ

" ... เป็นเวลา16 ปีแล้ว ที่อุดม แต้พานิช ยืนหยัดถือไมค์ต่อสู้เคียงข้างประชาชน ด้วยปนิธานอันแรงกล้า ที่จะช่วยให้พี่น้องชาวไทยได้ลืมตาอ้าปากหัวเราะได้อย่างไม่อายประเทศเพื่อน บ้าน ... ... ในสภาวะที่รัฐบาลมุ่งแก้ปัญหาสังคม เศรษฐกิจ และการเมือง แต่ปัญหาความเครียดของพี่น้องชาวไทย กลับไม่ได้รับการเยียวยาแก้ไข ... ... ครั้งนี้ นายอุดม แต้พานิช ขอโอกาสรับใช้พี่น้อง โดยอาสาเป็นแกนนำในการปฏิรูปอารมณ์ พร้อมคืนเสียงหัวเราะให้กับพี่น้องชาวไทยทุกคน ด้วยพันธะสัญญาที่จะมุ่งขจัดปัญหาความเครียดให้หมดไป ภายใน 16 รอบ เท่านั้น ... " ข้อความนี้ ปรากฏอยู่บนเว็บไซต์ udomteam ของนักทอล์คโชว์ที่มีชื่อเสียงมากคนหนึ่งของเมืองไทย โน๊ต อุดม แต้พานิช กับการประกาศการเปิดการแสดงเดี่ยวไมโครโฟนครั้งที่ 9 สำหรับผู้ชายคนนี้เป็นซุปเปอร์สตาร์ที่มีประวัติ ผลงาน รวมถึงเรื่องราวต่าง ๆ ที่น่าสนใจมากกว่าที่เรารู้จักกันในนามนักพูดที่มีชื่อเสียง เพราะนอกจากการพูด ที่แปลเปลี่ยนความเฮฮาเป็นเงิน ได้มากมายมานานเป็นเวลามากกว่า 10 ปี โน๊ตยังเป็นทั้งนักเขียน นักวาดรูป และนักแสดง อีกด้วย ด้วยลีลาการเล่าเรื่องที่คนฟังสามารถจินตนาการตามได้โดยไม่ต้องเห็นภาพ ทำให้ผู้คนจำนวนไม่น้อยติดตามผลงานและยกย่องให้เขาเป็นต้นฉบับของ Stand Up Comedy หรือ ในชื่อไทย เดี่ยวไมโครโฟน เป็นครั้งแรกของเมืองไทย การแสดงเดี่ยวไมโครโฟน เปิดการแสดงมามากถึง 11 ครั้ง ผ่านมาเป็นระยะเวลา 16 ปี เริ่มต้นด้วยเดี่ยวไมโครโฟน 1 ที่มีการเปิดการแสดง 3 รอบ รอบละ 450 ที่นั่งรวมเป็นผู้ชมนับ 1,300 คน จนกระทั่งครั้งล่าสุดที่ผ่านมาการแสดง เดี่ยว 8 ในปี 2553 ที่ต้องเปิดรอบการแสดงมากถึง 13 รอบ รอบละ 3,108 ที่นั่ง ซึ่งนับรวมผู้เข้าชมได้กว่า 40,000 คน ครั้งนี้เป็นครั้ง ที่ 12แล้วโดยมีคอนเส็ปว่า " รำลึก16 ปี แห่งความหลัง เดี่ยวไมโครโฟน" เดี่ยว 9 จัดขึ้นวันที่ 5-16 สิงหาคม 2554 ที่ Royal Paragon Hall สยามพารากอน ถ้าคุณคิดว่าการแสดงทอล์คโชว์ เป็นเรื่องที่ใคร ๆก็ทำได้ มันดูเหมือนเป็นการแสดง ง่าย ๆ ธรรมดา ๆ แค่พูด เรื่อง โน่น นี่ นั่น ในที่ที่มีคนดูเป็นพันที่พร้อมจะฮา แต่จะมีซักกี่คนที่มีผลงานอย่างต่อเนื่องถึง 16 ปี หลายต่อหลายครั้ง ทั้งยังมีเสียงตอบรับจากผู้ชมมากมายทุก ๆครั้ง การแสดงที่ดูเหมือนไม่มีอะไรมาก แกนหลักคือตัวของโน๊ต คำพูดและไมโครโฟน แค่นั้น แต่ไม่ง่ายเลยที่ จะพูดเรื่องราวต่าง ๆ ออกมาให้น่าสนใจโดยหยิบประเด็นต่าง ๆ ในสังคม ที่พวกเราคิดว่าธรรมดาและไม่สำคัญ มาทำเป็นเรื่องราวที่สนุกสนาน ตลกขบขัน แถมมีสาระอีกด้วย สำหรับ "เดี่ยวไมโครโฟน" และผลงานที่ผ่านมาทำให้ผู้คนรู้จักผู้ชายธรรมดาที่ไม่ธรรมดาคนนี้มากขึ้น แต่เราอยากจะถามทิ้งท้ายว่า " ... จะมีซักกี่คนในเมืองไทย ที่ทำได้อย่างเขาผู้นี้ ผู้ซึ่งเต็มไปด้วยอารมณ์ขัน,ความคิดสร้างสรรค์ และศิลปะของการพูดติดตลกชนิดแทงใจดำผู้ชม "อุดม แต้พานิช ... "

Format : Matroska
File size : 3.90 GiB
Duration : 3h 15mn
Overall bit rate : 2 857 Kbps
Movie name : Thai Stand Up Comedy 9 HD
Encoded date : UTC 2011-12-17 11:03:50
Writing application : mkvmerge v3.4.0 ('Rapunzel') built on May 15 2010 09:38:20
Writing library : libebml v0.8.0 + libmatroska v0.9.0

Video

ID : 1
Format : AVC
Format/Info : Advanced Video Codec
Format profile : High@L5.1
Format settings, CABAC : Yes
Format settings, ReFrames : 3 frames
Muxing mode : Container profile=Unknown@5.1
Codec ID : V_MPEG4/ISO/AVC
Duration : 3h 15mn
Bit rate : 2 472 Kbps
Width : 1 280 pixels
Height : 720 pixels
Display aspect ratio : 16:9
Frame rate : 25.000 fps
Color space : YUV
Chroma subsampling : 4:2:0
Bit depth : 8 bits
Scan type : Progressive
Bits/(Pixel*Frame) : 0.107
Stream size : 3.30 GiB (85%
Writing library : x264 core 114 r1924 08d04a4

Audio

ID : 2
Format : AC-3
Format/Info : Audio Coding 3
Mode extension : CM (complete main)
Codec ID : A_AC3
Duration : 3h 15mn
Bit rate mode : Constant
Bit rate : 384 Kbps
Channel(s) : 6 channels
Channel positions : Front: L C R, Side: L R, LFE
Sampling rate : 48.0 KHz
Video delay : 24ms
Stream size : 537 MiB (13%)





Putlocker

sockshare
ขึ้นไปข้างบน Go down
ดูข้อมูลส่วนตัว
nott78899
Webmasterขั้นเซียน
Webmasterขั้นเซียน


จำนวนข้อความ : 6
Points : 20
Reputation : 0
Join date : 18/11/2011

ตั้งหัวข้อเรื่อง: Re: [Mini-HD] เดี่ยวไมโครโฟน 9 ~ Thai Stand Up Comedy 9 (รำลึก 16 ปี แห่งความหลัง เดี่ยวไมโครโฟน) [720p][PL/SS/3.90 GB]   Fri Jan 06, 2012 6:20 pm

Cool Cool ขอบคุณมากๆ
ขึ้นไปข้างบน Go down
ดูข้อมูลส่วนตัว
 
[Mini-HD] เดี่ยวไมโครโฟน 9 ~ Thai Stand Up Comedy 9 (รำลึก 16 ปี แห่งความหลัง เดี่ยวไมโครโฟน) [720p][PL/SS/3.90 GB]
อ่านหัวข้อก่อนหน้า อ่านหัวข้อถัดไป ขึ้นไปข้างบน 
หน้า 1 จาก 1

Permissions in this forum:คุณไม่สามารถพิมพ์ตอบ
Blackwind :: Download Zone :: Download Movie-
ไปที่: